Encyclopaedia Metallum: The Metal Archives

Message board

* FAQ    * Search   * Register   * Login 



Reply to topic
Author Message Previous topic | Next topic
dreadmeat
emere vendere cambire

Joined: Sat Oct 04, 2008 4:50 am
Posts: 5792
Location: Auckland, New Zealand
PostPosted: Sun Mar 04, 2012 9:52 pm 
 

g'day, i got a Nebula cd called "peel session" and i'm trying to figure out if it's a bootleg or promo cd etc
it's got no booklet or covers, it doesn't sound live and it's too good to be a demo [i suppose]
i don't see it here at MA or at Discogs, any suggestions? they have a live album called Peel Sessions but this isn't it.

here are two scans of the cd and a screenshot of it playing in my media player [which means it's in CDDB]
Image

Image Image

edit: thumbnailed images.
_________________
Feedback centre viewforum.php?f=22

Sell/swap viewtopic.php?p=2040422
Wanted viewtopic.php?p=2343125
Feedback viewtopic.php?p=2470301


Last edited by dreadmeat on Thu Nov 21, 2013 6:49 pm, edited 2 times in total.
Top
 Profile  
ld50
Metalhead

Joined: Tue Jan 11, 2011 2:22 am
Posts: 503
Location: Canada
PostPosted: Sun Mar 04, 2012 10:25 pm 
 

I'm going to assume that you did this first, right? You wouldn't just randomly post, would you? Naw, I didn't think so. :)

John Peel hosted a show on BBC radio where bands would play and record live tracks. There are plenty of gems to be found through this show.

Top
 Profile  
dreadmeat
emere vendere cambire

Joined: Sat Oct 04, 2008 4:50 am
Posts: 5792
Location: Auckland, New Zealand
PostPosted: Mon Mar 05, 2012 4:23 pm 
 

i'm going to assume you didn't read my post properly ;)
i messaged the band via myspace yesterday [their hotmail address bounces and their website is 'gone']
do any of you guys have this cd? i want to add it to discogs but not if it's a bootleg.
_________________
Feedback centre viewforum.php?f=22

Sell/swap viewtopic.php?p=2040422
Wanted viewtopic.php?p=2343125
Feedback viewtopic.php?p=2470301

Top
 Profile  
dreadmeat
emere vendere cambire

Joined: Sat Oct 04, 2008 4:50 am
Posts: 5792
Location: Auckland, New Zealand
PostPosted: Fri Jun 15, 2012 7:01 pm 
 

track 2 sonic titan doesn't seem to be a sleep cover
nebula - sonic titan
http://www.youtube.com/watch?v=dZGHEvX4Kpo
sleep - sonic titan
http://www.youtube.com/watch?v=SChhLWp40Qk

if you look at the track listing on the peel sessions release
http://www.discogs.com/Nebula-Peel-Sessions/release/1722404
http://www.metal-archives.com/albums/Nebula/Peel_Sessions/244184
  • 6 This One
  • 7 Sonic Titan
  • 8 Freedom
  • 9 All The Way
the only song that's missing from the 22nd August 2001 for Radio 1 Peel Session is Do It Now which is on Charged.
This One and All The Way are also on charged.
this could be a promo disc for the peel sessions album?
it's definitely a burned disc [note the green hue] what do you guys think? legitimate promo?
Image

the freedb entry [not submitted by me]
http://www.freedb.org/freedb/rock/3f064605

Code:
# xmcd
#
# Track frame offsets:
#   150
#   18699
#   43834
#   62674
#   84729
#
# Disc length: 1608 seconds
#
# Revision: 1
# Processed by: cddbd v1.5.2PL0 Copyright (c) Steve Scherf et al.
# Submitted via: EasyCDDAExtractor 6.0.0.1
#
DISCID=3f064605
DTITLE=NEBULA / Peel Session
DYEAR=1991
DGENRE=
TTITLE0=This One
TTITLE1=Sonic Titan
TTITLE2=Do It Now
TTITLE3=Freedom
TTITLE4=All the Way
EXTD=
EXTT0=
EXTT1=
EXTT2=
EXTT3=
EXTT4=
PLAYORDER=
_________________
Feedback centre viewforum.php?f=22

Sell/swap viewtopic.php?p=2040422
Wanted viewtopic.php?p=2343125
Feedback viewtopic.php?p=2470301

Top
 Profile  
edjgraphix
Mallcore Kid

Joined: Sat Nov 09, 2013 3:04 am
Posts: 3
Location: United States
PostPosted: Sat Nov 09, 2013 3:42 am 
 

No, it's an official CD that the band sold at shows in 2001. I bought one from them when I saw them play at Spaceland in Silver Lake (that's in L.A., in case you're not familiar.) It came with a hand painted cover - I mean, this cover is thick from the paint. I was introduced to them at the club and hadn't even heard them play yet, but they were cool. I figured that I'd buy a cd of theirs - I usually always ended up liking the bands I saw anyways, so I asked which one they recommended. I was told that there were only 500 of these CDs made and that they were special recordings. They made them sound like they were really out of the ordinary and that it was really something great, so, I bought one. The funny thing about this story is that I didn't even have a cd player until about 1995!!! Anyways, I listed it at Discogs just recently. I was searching for more info on this very cd when I came across this post, which is the only evidence that I have to prove that I didn't just conjure this cd up in my own imagination. And, if I am the one who is depended on to forward the info about this release then I gotta say, I really fucked up and should have paid more attention to what was being said that night! HAHAHA!

Top
 Profile  
edjgraphix
Mallcore Kid

Joined: Sat Nov 09, 2013 3:04 am
Posts: 3
Location: United States
PostPosted: Sat Nov 09, 2013 3:44 am 
 

Almost forgot - here is the cover insert: http://www.discogs.com/viewimages?release=5001731

Top
 Profile  
dreadmeat
emere vendere cambire

Joined: Sat Oct 04, 2008 4:50 am
Posts: 5792
Location: Auckland, New Zealand
PostPosted: Sat Nov 09, 2013 4:34 am 
 

Wicked, thanks for the info mate, I beat you to it though :p
http://www.discogs.com/release/3995351
We should merge them I suppose.
_________________
Feedback centre viewforum.php?f=22

Sell/swap viewtopic.php?p=2040422
Wanted viewtopic.php?p=2343125
Feedback viewtopic.php?p=2470301

Top
 Profile  
edjgraphix
Mallcore Kid

Joined: Sat Nov 09, 2013 3:04 am
Posts: 3
Location: United States
PostPosted: Sat Nov 09, 2013 5:52 am 
 

LOL! That's cool! I had no idea. I guess because I didn't notice the unofficial releases. Since you got to it first, you can do the honors of the merge. That, plus I've only been submitting info for about a month but it's been about a month straight! Yeah, so I'm still looking for info, if I come across anything good I'll clue you in.

Top
 Profile  
dreadmeat
emere vendere cambire

Joined: Sat Oct 04, 2008 4:50 am
Posts: 5792
Location: Auckland, New Zealand
PostPosted: Thu Nov 21, 2013 6:09 pm 
 

Done, merged and updated :nods:
http://www.discogs.com/release/3995351
_________________
Feedback centre viewforum.php?f=22

Sell/swap viewtopic.php?p=2040422
Wanted viewtopic.php?p=2343125
Feedback viewtopic.php?p=2470301

Top
 Profile  
Display posts from previous:  Sort by  
Reply to topic


Who is online

Users browsing this forum: Black Blood, Classy, ENKC, Evil_Obsidian, Kryth and 29 guests


You cannot post new topics in this forum
You cannot reply to topics in this forum
You cannot edit your posts in this forum
You cannot delete your posts in this forum

 
Jump to:  

Back to the Encyclopaedia Metallum


Powered by phpBB © 2000, 2002, 2005, 2007 phpBB Group